<?xml version="1.0" standalone="no"?><!DOCTYPE svg PUBLIC "-//W3C//DTD SVG 1.1//EN" "http://www.w3.org/Graphics/SVG/1.1/DTD/svg11.dtd" >
<svg xmlns="http://www.w3.org/2000/svg">
<defs>
    <font id="remixicon" horiz-adv-x="1200">
    <font-face font-family="remixicon"
        units-per-em="1200" ascent="1200"
        descent="0" />
    <missing-glyph horiz-adv-x="0" /><glyph glyph-name="arrow-down-s-line"
            unicode="&#xEA4E;"
            horiz-adv-x="1200" d="M600 541.4L847.5 788.8999999999999L918.2 718.1999999999999L600 400L281.8 718.2L352.5 788.9000000000001z" /><glyph glyph-name="checkbox-circle-line"
            unicode="&#xEB81;"
            horiz-adv-x="1200" d="M600 100C323.85 100 100 323.85 100 600S323.85 1100 600 1100S1100 876.15 1100 600S876.15 100 600 100zM600 200A400 400 0 1 1 600 1000A400 400 0 0 1 600 200zM550.15 400L338 612.15L408.7 682.85L550.15 541.4L832.9499999999999 824.25L903.7 753.55L550.15 400z" /><glyph glyph-name="refresh-line"
            unicode="&#xF064;"
            horiz-adv-x="1200" d="M273.15 978.35A498.05 498.05 0 0 0 600 1100C876.15 1100 1100 876.15 1100 600C1100 493.2 1066.5 394.2000000000001 1009.5000000000002 312.9999999999999L850 600H1000A400 400 0 0 1 323 888.6L273.15 978.35zM926.85 221.65A498.05 498.05 0 0 0 600 100C323.85 100 100 323.85 100 600C100 706.8 133.5 805.8 190.5 887L350 600H200A400 400 0 0 1 877 311.4000000000001L926.85 221.65z" /><glyph glyph-name="check-line"
            unicode="&#xEB7B;"
            horiz-adv-x="1200" d="M500 441.4L959.6 901.05L1030.35 830.3499999999999L500 300L181.8 618.2L252.5 688.9000000000001z" /><glyph glyph-name="settings-5-line"
            unicode="&#xF0EA;"
            horiz-adv-x="1200" d="M110.65 497A497.25 497.25 0 0 0 110.65 703C166.15 696.4999999999999 214.65 714.8499999999999 230.45 753.05C246.3 791.3 225.05 838.55 181.15 873.1999999999999A497.25 497.25 0 0 0 326.8 1018.85C361.4 974.9999999999998 408.7 953.7 446.95 969.55C485.2 985.3999999999997 503.55 1033.85 497 1089.35A497.25 497.25 0 0 0 702.9999999999999 1089.35C696.4999999999999 1033.85 714.8499999999999 985.35 753.05 969.55C791.3 953.7 838.5499999999998 974.95 873.1999999999999 1018.85A497.25 497.25 0 0 0 1018.85 873.1999999999999C975 838.5999999999999 953.7 791.3 969.55 753.05C985.3999999999997 714.8 1033.85 696.4499999999999 1089.35 703A497.25 497.25 0 0 0 1089.35 496.9999999999999C1033.85 503.4999999999999 985.35 485.1499999999999 969.55 446.95C953.7 408.7 974.95 361.45 1018.85 326.7999999999999A497.25 497.25 0 0 0 873.1999999999999 181.1499999999999C838.5999999999999 224.9999999999998 791.3 246.3 753.05 230.45C714.7999999999998 214.5999999999999 696.4499999999999 166.1499999999999 702.9999999999999 110.6499999999999A497.25 497.25 0 0 0 496.9999999999999 110.6499999999999C503.4999999999999 166.1499999999999 485.1499999999999 214.65 446.95 230.45C408.6999999999999 246.3 361.45 225.0499999999999 326.7999999999999 181.1499999999999A497.25 497.25 0 0 0 181.1499999999999 326.7999999999999C224.9999999999999 361.3999999999999 246.3 408.7 230.4499999999999 446.95C214.5999999999999 485.1999999999999 166.1499999999999 503.55 110.6499999999999 496.9999999999999zM200 589.5C255 574.25 300.35 539.4 322.85 485.1999999999999C345.3 430.9500000000001 337.85 374.2 309.75 324.5999999999999C314.55 319.4999999999999 319.5 314.5499999999999 324.6 309.7499999999999C374.25 337.8499999999999 430.95 345.2499999999999 485.2 322.8499999999999C539.4 300.3499999999999 574.2500000000001 254.9999999999999 589.5 199.9999999999998C596.5000000000001 199.7999999999997 603.5 199.7999999999997 610.5 199.9999999999998C625.75 254.9999999999999 660.6 300.3499999999999 714.8000000000001 322.8499999999999C769.05 345.3 825.8000000000001 337.8499999999999 875.4000000000001 309.7499999999999C880.5000000000001 314.5499999999999 885.4500000000002 319.4999999999999 890.2500000000001 324.5999999999999C862.1500000000001 374.2499999999998 854.7500000000001 430.9499999999998 877.1500000000001 485.1999999999998C899.6500000000001 539.3999999999999 945.0000000000002 574.2499999999999 1000.0000000000002 589.4999999999999C1000.2000000000002 596.4999999999999 1000.2000000000002 603.4999999999999 1000.0000000000002 610.4999999999999C945.0000000000002 625.7499999999999 899.6500000000001 660.5999999999999 877.1500000000001 714.8C854.7 769.0499999999998 862.1500000000001 825.8 890.2500000000001 875.3999999999999A396.75 396.75 0 0 1 875.4000000000001 890.2499999999998C825.7500000000002 862.1499999999999 769.0500000000002 854.7499999999998 714.8000000000002 877.1499999999999C660.6 899.6500000000001 625.75 945 610.5 1000A396.75 396.75 0 0 1 589.5 1000C574.2500000000001 945 539.4 899.6500000000001 485.2 877.1500000000001C430.95 854.7 374.2 862.1500000000001 324.6 890.25C319.5 885.45 314.5500000000001 880.5 309.7500000000001 875.4C337.8500000000001 825.75 345.2500000000001 769.05 322.85 714.8C300.35 660.6 255 625.75 200 610.5C199.8 603.5 199.8 596.5000000000001 200 589.5zM600 450A150 150 0 1 0 600 750A150 150 0 0 0 600 450zM600 550A50 50 0 1 1 600 650A50 50 0 0 1 600 550z" /><glyph glyph-name="palette-line"
            unicode="&#xEFC5;"
            horiz-adv-x="1200" d="M600 1100C876.0999999999999 1100 1100 901.1 1100 655.5500000000001A277.9 277.9 0 0 0 822.1999999999999 377.8000000000001H723.9C677.8 377.8000000000001 640.55 340.55 640.55 294.45C640.55 273.3499999999999 648.9 253.9 661.65 239.45C675 224.4499999999998 683.35 204.9999999999999 683.35 183.3499999999999C683.35 137.2000000000001 645 100 600 100C323.9 100 100 323.9000000000001 100 600S323.9 1100 600 1100zM540.55 294.45A183.20000000000002 183.20000000000002 0 0 0 723.9 477.8H822.1999999999999A177.9 177.9 0 0 1 1000 655.5C1000 843.05 823.4 1000 600 1000A400 400 0 0 1 566.2 201.4A182.4 182.4 0 0 0 540.55 294.3999999999999zM375 600A75 75 0 1 0 375 750A75 75 0 0 0 375 600zM825 600A75 75 0 1 0 825 750A75 75 0 0 0 825 600zM600 750A75 75 0 1 0 600 900A75 75 0 0 0 600 750z" /><glyph glyph-name="layout-grid-line"
            unicode="&#xEE90;"
            horiz-adv-x="1200" d="M1050 1050A50 50 0 0 0 1100 1000V200A50 50 0 0 0 1050 150H150A50 50 0 0 0 100 200V1000A50 50 0 0 0 150 1050H1050zM550 550H200V250H550V550zM1000 550H650V250H1000V550zM550 950H200V650H550V950zM1000 950H650V650H1000V950z" /><glyph glyph-name="layout-4-line"
            unicode="&#xEE83;"
            horiz-adv-x="1200" d="M1000 1050A50 50 0 0 0 1050 1000V200A50 50 0 0 0 1000 150H200A50 50 0 0 0 150 200V1000A50 50 0 0 0 200 1050H1000zM550 550H250V250H550V550zM650 250H950V950H650V250zM550 950H250V650H550V950z" /><glyph glyph-name="layout-column-line"
            unicode="&#xEE8D;"
            horiz-adv-x="1200" d="M550 950H250V250H550V950zM650 950V250H950V950H650zM200 1050H1000A50 50 0 0 0 1050 1000V200A50 50 0 0 0 1000 150H200A50 50 0 0 0 150 200V1000A50 50 0 0 0 200 1050z" /><glyph glyph-name="layout-row-line"
            unicode="&#xEE9D;"
            horiz-adv-x="1200" d="M950 650V950H250V650H950zM950 550H250V250H950V550zM200 1050H1000A50 50 0 0 0 1050 1000V200A50 50 0 0 0 1000 150H200A50 50 0 0 0 150 200V1000A50 50 0 0 0 200 1050z" /><glyph glyph-name="layout-top-line"
            unicode="&#xEEA1;"
            horiz-adv-x="1200" d="M1050 1050A50 50 0 0 0 1100 1000V200A50 50 0 0 0 1050 150H150A50 50 0 0 0 100 200V1000A50 50 0 0 0 150 1050H1050zM200 700V250H1000V700H200zM200 800H1000V950H200V800z" /><glyph glyph-name="layout-left-line"
            unicode="&#xEE94;"
            horiz-adv-x="1200" d="M1050 1050A50 50 0 0 0 1100 1000V200A50 50 0 0 0 1050 150H150A50 50 0 0 0 100 200V1000A50 50 0 0 0 150 1050H1050zM350 950H200V250H350V950zM1000 950H450V250H1000V950z" /><glyph glyph-name="layout-masonry-line"
            unicode="&#xEE97;"
            horiz-adv-x="1200" d="M1100 200A50 50 0 0 0 1050 150H150A50 50 0 0 0 100 200V1000A50 50 0 0 0 150 1050H1050A50 50 0 0 0 1100 1000V200zM550 450H200V250H550V450zM1000 650H650V250H1000V650zM550 950H200V550H550V950zM1000 950H650V750H1000V950z" /><glyph glyph-name="layout-top-2-line"
            unicode="&#xEE9F;"
            horiz-adv-x="1200" d="M1050 1050A50 50 0 0 0 1100 1000V200A50 50 0 0 0 1050 150H150A50 50 0 0 0 100 200V1000A50 50 0 0 0 150 1050H1050zM1000 950H200V250H1000V950zM900 850V750H300V850H900z" /><glyph glyph-name="layout-6-line"
            unicode="&#xEE87;"
            horiz-adv-x="1200" d="M150 150A50 50 0 0 0 100 200V1000A50 50 0 0 0 150 1050H1050A50 50 0 0 0 1100 1000V200A50 50 0 0 0 1050 150H150zM750 700H200V250H750V700zM1000 700H850V250H1000V700zM1000 950H200V800H1000V950z" /><glyph glyph-name="image-edit-line"
            unicode="&#xEE49;"
            horiz-adv-x="1200" d="M1000 1050C1027.6 1050 1050 1027.6 1050 1000V912.15L950 812.1500000000001V950H250V545L450 745L666.4 528.5500000000001L595.65 457.9000000000001L450 603.5L250 403.55V250H776.65L812.05 249.95L878.5 316.4500000000001L944.9999999999998 250H950V387.9L1050 487.9V200C1050 172.4000000000001 1027.6 150 1000 150H200C172.5 150 150 172.5 150 200V1000C150 1027.6 172.4 1050 200 1050H1000zM1088.8999999999999 809.6L1159.6 738.9000000000001L770.6999999999999 350L699.9 350.0999999999999L700 420.7L1088.8999999999999 809.5999999999999zM775 850C816.4 850 850 816.4000000000001 850 775S816.4 700 775 700S700 733.6 700 775S733.6 850 775 850z" /><glyph glyph-name="gallery-line"
            unicode="&#xEDA5;"
            horiz-adv-x="1200" d="M1000 550C916.1 550 837.5500000000001 527 770.35 487.05A749.2 749.2 0 0 0 907.35 250H1000V550zM800.2 250C702.2 484.9 470.4 650 200 650V250H800.1999999999999zM200 750C391.5 750 566.15 678.25 698.7 560.2A547.4499999999999 547.4499999999999 0 0 0 1000 650V1050H1050.3999999999999C1077.8 1050 1100 1027.75 1100 1000.35V199.6500000000001A50 50 0 0 0 1050.3999999999999 150.0000000000002H149.6A49.65 49.65 0 0 0 100 199.65V1000.35A50 50 0 0 0 149.6 1050H300V1150H400V950H200V750zM900 1150V950H500V1050H800V1150H900zM825 700A75 75 0 1 0 825 850A75 75 0 0 0 825 700z" /><glyph glyph-name="image-line"
            unicode="&#xEE4B;"
            horiz-adv-x="1200" d="M241.4 150L240.4000000000001 149L239.3500000000001 150H149.6A49.65 49.65 0 0 0 100 199.65V1000.35A50 50 0 0 0 149.6 1050H1050.3999999999999C1077.8 1050 1100 1027.75 1100 1000.35V199.6500000000001A50 50 0 0 0 1050.3999999999999 150.0000000000002H241.4zM1000 450V950H200V250L700 750L1000 450zM1000 308.6L700 608.6L341.4000000000001 250H1000V308.6zM400 650A100 100 0 1 0 400 850A100 100 0 0 0 400 650z" /><glyph glyph-name="links-line"
            unicode="&#xEEB8;"
            horiz-adv-x="1200" d="M653 794.5L723.7500000000001 723.75A350 350 0 0 0 723.7500000000001 228.7500000000001L706.0500000000001 211.1A350 350 0 0 0 211.0500000000001 706.1000000000001L281.8000000000001 635.35A250 250 0 1 1 635.35 281.8000000000002L653.05 299.5000000000001A250 250 0 0 1 653.05 653.0000000000001L582.3000000000001 723.75L653.05 794.45zM988.9 493.95L918.1999999999998 564.6500000000001A250 250 0 1 1 564.6499999999999 918.2L546.9499999999999 900.5A250 250 0 0 1 546.9499999999999 547.0000000000001L617.6999999999999 476.2500000000001L546.95 405.5500000000001L476.25 476.2500000000001A350 350 0 0 0 476.25 971.2500000000002L493.95 988.9A350 350 0 0 0 988.95 493.9000000000001z" /><glyph glyph-name="align-left"
            unicode="&#xEA27;"
            horiz-adv-x="1200" d="M150 1000H1050V900H150V1000zM150 250H850V150H150V250zM150 500H1050V400H150V500zM150 750H850V650H150V750z" /><glyph glyph-name="double-quotes-l"
            unicode="&#xEC51;"
            horiz-adv-x="1200" d="M229.15 333.95C177.65 388.65 150 450 150 549.45C150 724.45 272.85 881.3 451.5000000000001 958.8500000000003L496.1500000000001 889.95C329.4000000000001 799.75 296.8000000000001 682.7 283.8000000000001 608.9000000000001C310.6500000000001 622.8000000000001 345.8000000000002 627.6500000000001 380.2500000000001 624.45C470.4500000000001 616.1 541.5500000000002 542.0500000000001 541.5500000000002 450A175 175 0 0 0 366.5500000000002 275C312.9000000000002 275 261.6000000000002 299.4999999999999 229.1500000000002 333.95zM729.15 333.95C677.6500000000001 388.65 650 450 650 549.45C650 724.45 772.85 881.3 951.5 958.8500000000003L996.15 889.95C829.4000000000001 799.75 796.8000000000001 682.7 783.8000000000001 608.9000000000001C810.6500000000001 622.8000000000001 845.8000000000001 627.6500000000001 880.25 624.45C970.45 616.1 1041.55 542.0500000000001 1041.55 450A175 175 0 0 0 866.55 275C812.9 275 761.5999999999999 299.4999999999999 729.1499999999999 333.95z" /><glyph glyph-name="arrow-left-right-line"
            unicode="&#xEA62;"
            horiz-adv-x="1200" d="M802.5 597.5L1050 350L802.5 102.5L731.8000000000001 173.2000000000001L858.6 300.0500000000001L200 300V400H858.6L731.8000000000001 526.8L802.5 597.5zM397.5000000000001 1097.5L468.2 1026.8L341.4000000000001 900L1000 900V800H341.4000000000001L468.2 673.2L397.5 602.5L150 850L397.5 1097.5z" /><glyph glyph-name="text"
            unicode="&#xF201;"
            horiz-adv-x="1200" d="M650 900V150H550V900H250V1000H950V900z" /><glyph glyph-name="font-color"
            unicode="&#xED8B;"
            horiz-adv-x="1200" d="M762.3000000000001 500H437.7L357.7 300H250L550 1050H650L950 300H842.3L762.3000000000001 500zM722.3 600L600 905.75L477.7 600H722.3000000000001zM150 200H1050V100H150V200z" /><glyph glyph-name="font-size"
            unicode="&#xED8D;"
            horiz-adv-x="1200" d="M562.3000000000001 450H237.7L137.7 200H30L350 1000H450L770 200H662.3000000000001L562.3000000000001 450zM522.3 550L400 855.75L277.7 550H522.3000000000001zM1050 573.25V600H1150V200H1050V226.75A200 200 0 1 0 1050 573.25zM950 300A100 100 0 1 1 950 500A100 100 0 0 1 950 300z" /><glyph glyph-name="pencil-line"
            unicode="&#xEFE0;"
            horiz-adv-x="1200" d="M786.4 715.7L715.7 786.4L250 320.7000000000001V250H320.7L786.4 715.7zM857.1 786.4L927.8 857.0999999999999L857.1 927.8L786.4 857.0999999999999L857.1 786.4zM362.1 150H150V362.1500000000001L821.7499999999999 1033.9A50 50 0 0 0 892.45 1033.9L1033.9 892.45A50 50 0 0 0 1033.9 821.75L362.1500000000001 150z" /><glyph glyph-name="edit-box-line"
            unicode="&#xEC82;"
            horiz-adv-x="1200" d="M837.85 1050L737.85 950H250V250H950V737.8499999999999L1050 837.8499999999999V200A50 50 0 0 0 1000 150H200A50 50 0 0 0 150 200V1000A50 50 0 0 0 200 1050H837.8499999999999zM1024.2500000000002 1095L1095 1024.2L635.3999999999999 564.6L564.8 564.4499999999999L564.6999999999999 635.3L1024.25 1095z" /><glyph glyph-name="list-check-2"
            unicode="&#xEEB9;"
            horiz-adv-x="1200" d="M550 1000H1050V900H550V1000zM550 800H850V700H550V800zM550 500H1050V400H550V500zM550 300H850V200H550V300zM150 1000H450V700H150V1000zM250 900V800H350V900H250zM150 500H450V200H150V500zM250 400V300H350V400H250z" /><glyph glyph-name="page-separator"
            unicode="&#xEFBD;"
            horiz-adv-x="1200" d="M850 150V350H350V150H250V400A50 50 0 0 0 300 450H900A50 50 0 0 0 950 400V150H850zM350 1050V850H850V1050H950V800A50 50 0 0 0 900 750H300A50 50 0 0 0 250 800V1050H350zM100 750L300 600L100 450V750zM1100 750V450L900 600L1100 750z" /><glyph glyph-name="split-cells-vertical"
            unicode="&#xF17B;"
            horiz-adv-x="1200" d="M1000 1050C1027.6 1050 1050 1027.6 1050 1000V200C1050 172.4000000000001 1027.6 150 1000 150H200C172.4 150 150 172.4000000000001 150 200V1000C150 1027.6 172.4 1050 200 1050H1000zM950 950H250V650.0500000000001L450 650V550H250V250H950V550H750V650L950 650.05V950zM600 900L750 750H650V450H750L600 300L450 450H550V750H450L600 900z" /><glyph glyph-name="map-2-line"
            unicode="&#xEF06;"
            horiz-adv-x="1200" d="M100 950L450 1100L750 950L1065.15 1085.05A25 25 0 0 0 1100 1062.05V250L750 100L450 250L134.85 114.9500000000001A25 25 0 0 0 100 137.9500000000001V950zM800 230.25L1000 315.95V948.35L800 862.65V230.25zM700 236.8000000000001V863.2L500 963.2V336.8000000000001L700 236.8000000000001zM400 337.35V969.75L200 884.05V251.6500000000001L400 337.35z" /><glyph glyph-name="earth-line"
            unicode="&#xEC7A;"
            horiz-adv-x="1200" d="M311.75 877.3499999999999A400 400 0 0 1 752.6 230.1499999999999C758.35 267.6499999999999 745.75 303.6499999999999 740.6 316.25C729.0999999999999 344.2499999999999 691.2 392.0999999999999 627.9499999999999 458.4499999999999C611.05 476.1999999999999 612.15 489.8499999999999 618.1999999999999 530.3L618.8499999999999 534.8499999999999C622.9499999999999 562.5499999999998 629.85 578.9499999999998 723.1 593.7499999999998C770.5 601.2499999999999 782.9499999999999 582.3499999999998 800.2 556.0999999999998L806 547.4999999999998C822.4 523.4999999999998 834.5500000000002 517.9999999999998 852.9 509.6999999999998C861.15 505.9499999999998 871.4000000000001 501.1999999999998 885.15 493.4499999999998C917.75 474.7999999999998 917.75 453.7499999999998 917.75 407.6499999999999V402.3999999999999C917.75 382.8499999999998 915.85 365.6499999999998 912.85 350.6999999999998A400.1 400.1 0 0 1 757.6 967.7499999999998C729.95 949.0999999999996 692.0000000000001 922.6499999999997 678.75 904.4999999999998C672.0000000000001 895.2499999999998 662.4000000000001 847.8999999999999 631.2500000000001 843.9999999999998C623.1500000000001 842.9999999999998 612.2 843.6999999999998 600.6000000000001 844.4499999999998C569.5000000000001 846.4499999999998 527.0000000000001 849.1999999999998 513.4000000000001 812.2499999999998C504.7500000000001 788.8499999999998 503.2500000000002 725.2499999999998 531.2000000000002 692.2499999999998C535.7000000000002 686.9999999999998 536.5500000000001 677.2499999999998 533.5000000000001 666.2999999999997C529.5000000000001 651.9499999999997 521.45 643.1999999999998 518.9000000000001 641.3999999999997C514.1000000000001 644.1999999999997 504.5000000000001 655.3499999999998 497.95 662.8999999999997C482.3000000000001 681.1499999999997 462.7 703.8999999999999 437.4000000000001 710.8999999999999C428.2000000000001 713.4499999999998 418.1000000000001 715.5499999999998 408.2500000000001 717.6499999999999C380.8 723.3999999999999 349.7500000000001 729.9499999999998 342.5000000000001 745.3499999999998C337.2000000000001 756.6499999999999 337.2500000000001 772.1999999999998 337.2500000000001 788.5999999999999C337.2500000000001 809.4499999999998 337.2500000000001 832.9999999999998 327.0500000000001 855.8499999999998A63.8 63.8 0 0 1 311.7500000000001 877.3499999999998zM600 100C323.85 100 100 323.85 100 600S323.85 1100 600 1100S1100 876.15 1100 600S876.15 100 600 100z" /><glyph glyph-name="map-pin-line"
            unicode="&#xEF14;"
            horiz-adv-x="1200" d="M600 155L847.5 402.5A350 350 0 1 1 352.5 402.5L600 155zM600 13.6000000000001L281.8 331.8000000000002A450 450 0 1 0 918.2 331.8000000000002L600 13.5999999999999zM600 550A100 100 0 1 1 600 750A100 100 0 0 1 600 550zM600 450A200 200 0 1 0 600 850A200 200 0 0 0 600 450z" /><glyph glyph-name="group-line"
            unicode="&#xEDE3;"
            horiz-adv-x="1200" d="M100 100A400 400 0 1 0 900 100H800A300 300 0 1 1 200 100H100zM500 550C334.25 550 200 684.25 200 850S334.25 1150 500 1150S800 1015.75 800 850S665.75 550 500 550zM500 650C610.5 650 700 739.5 700 850S610.5 1050 500 1050S300 960.5 300 850S389.5 650 500 650zM914.2 464.85A400.1 400.1 0 0 0 1150 100H1050A300.05 300.05 0 0 1 873.1500000000001 373.65L914.15 464.8499999999999zM879.8 1029.35A275 275 0 0 0 1050 775A274.94999999999993 274.94999999999993 0 0 0 800 501.1V601.75A175 175 0 0 1 852.0500000000001 932.2L879.8 1029.35z" /><glyph glyph-name="user-line"
            unicode="&#xF264;"
            horiz-adv-x="1200" d="M200 100A400 400 0 1 0 1000 100H900A300 300 0 1 1 300 100H200zM600 550C434.25 550 300 684.25 300 850S434.25 1150 600 1150S900 1015.75 900 850S765.75 550 600 550zM600 650C710.5 650 800 739.5 800 850S710.5 1050 600 1050S400 960.5 400 850S489.4999999999999 650 600 650z" /><glyph glyph-name="play-circle-line"
            unicode="&#xF009;"
            horiz-adv-x="1200" d="M600 100C323.85 100 100 323.85 100 600S323.85 1100 600 1100S1100 876.15 1100 600S876.15 100 600 100zM600 200A400 400 0 1 1 600 1000A400 400 0 0 1 600 200zM531.1 779.25L775.05 616.6500000000001A20.000000000000004 20.000000000000004 0 0 0 775.05 583.3500000000001L531.05 420.7500000000001A20.000000000000004 20.000000000000004 0 0 0 499.9999999999999 437.3500000000002V762.65A20.000000000000004 20.000000000000004 0 0 0 531.0999999999999 779.25z" /><glyph glyph-name="restaurant-2-line"
            unicode="&#xF082;"
            horiz-adv-x="1200" d="M713.4000000000001 592.6999999999999L670.7 550L1024.25 196.4500000000001L953.55 125.75L600 479.25L246.45 125.75L175.75 196.4500000000001L642.7 663.4000000000001C613.3000000000001 736.2500000000002 643.7 841.1500000000001 723.7 921.2500000000002C821.35 1018.8500000000003 955.9 1042.6000000000001 1024.25 974.2500000000002S1068.85 771.3500000000001 971.25 673.7500000000001C891.15 593.6500000000001 786.2500000000001 563.2500000000002 713.4000000000001 592.7000000000002zM211.1 1009.6L546.95 673.7500000000001L405.55 532.3000000000001L211.05 726.8000000000001A200 200 0 0 0 211.05 1009.6zM900.5000000000001 744.5C963.4 807.35 976.35 880.8 953.55 903.6C930.7500000000002 926.4 857.3000000000001 913.45 794.45 850.6C731.6 787.7 718.6500000000001 714.25 741.45 691.45C764.2 668.7 837.65 681.6500000000001 900.5000000000001 744.5z" /><glyph glyph-name="flag-2-line"
            unicode="&#xED39;"
            horiz-adv-x="1200" d="M200 350V100H100V1050H1056.9A25 25 0 0 0 1078.65 1012.6L900 700L1078.65 387.4000000000001A25 25 0 0 0 1056.9 350H200zM200 950V450H927.7L784.8000000000001 700L927.7 950H200z" /><glyph glyph-name="music-line"
            unicode="&#xEF85;"
            horiz-adv-x="1200" d="M600 523.25V1050H1000V950H700V350A200 200 0 1 0 600 523.25zM500 250A100 100 0 1 1 500 450A100 100 0 0 1 500 250z" /><glyph glyph-name="toggle-line"
            unicode="&#xF219;"
            horiz-adv-x="1200" d="M400 850A250 250 0 1 1 400 350H800A250 250 0 0 1 800 850H400zM400 950H800A350 350 0 0 0 800 250H400A350 350 0 0 0 400 950zM400 450A150 150 0 1 0 400 750A150 150 0 0 0 400 450z" /><glyph glyph-name="window-line"
            unicode="&#xF2C6;"
            horiz-adv-x="1200" d="M150 1050H1050A50 50 0 0 0 1100 1000V200A50 50 0 0 0 1050 150H150A50 50 0 0 0 100 200V1000A50 50 0 0 0 150 1050zM1000 650H200V250H1000V650zM1000 750V950H200V750H1000zM450 900H550V800H450V900zM250 900H350V800H250V900z" /><glyph glyph-name="terminal-box-line"
            unicode="&#xF1F6;"
            horiz-adv-x="1200" d="M150 1050H1050A50 50 0 0 0 1100 1000V200A50 50 0 0 0 1050 150H150A50 50 0 0 0 100 200V1000A50 50 0 0 0 150 1050zM200 950V250H1000V950H200zM600 450H900V350H600V450zM433.35 600L291.9 741.4L362.65 812.15L574.75 600L362.65 387.8499999999999L291.9 458.5999999999999L433.35 600z" /><glyph glyph-name="code-s-slash-line"
            unicode="&#xEBAD;"
            horiz-adv-x="1200" d="M1200 600L917.15 317.15L846.4499999999999 387.85L1058.6000000000001 600L846.45 812.1500000000001L917.1500000000002 882.85L1200 600zM141.4 600L353.55 387.8499999999999L282.85 317.1499999999999L0 600L282.85 882.85L353.5 812.1500000000001L141.4 600zM489.4 150H383L710.6 1050H817L489.4 150z" /><glyph glyph-name="price-tag-3-line"
            unicode="&#xF023;"
            horiz-adv-x="1200" d="M545 1095L1039.95 1024.25L1110.65 529.25L651.0500000000001 69.6500000000001A50 50 0 0 0 580.35 69.6500000000001L85.35 564.6500000000001A50 50 0 0 0 85.35 635.35L545 1095zM580.35 988.9L191.4 600L615.7 175.75L1004.6 564.65L951.6 935.9L580.3499999999999 988.8999999999997zM686.35 670.7A100 100 0 1 0 827.8500000000001 812.1500000000001A100 100 0 0 0 686.3500000000001 670.7z" /><glyph glyph-name="t-box-line"
            unicode="&#xF1D3;"
            horiz-adv-x="1200" d="M250 950V250H950V950H250zM200 1050H1000A50 50 0 0 0 1050 1000V200A50 50 0 0 0 1000 150H200A50 50 0 0 0 150 200V1000A50 50 0 0 0 200 1050zM650 700V350H550V700H350V800H850V700H650z" /><glyph glyph-name="pie-chart-line"
            unicode="&#xEFFA;"
            horiz-adv-x="1200" d="M600 100C323.85 100 100 323.85 100 600C100 823.9 247.15 1013.4 450 1077.1V970.9A400.15000000000003 400.15000000000003 0 0 1 600 200A400.15000000000003 400.15000000000003 0 0 1 970.9 450H1077.1C1013.3999999999997 247.1499999999999 823.8999999999999 100 599.9999999999999 100zM1097.5 550H550V1097.5C566.45 1099.15 583.15 1100 600 1100C876.15 1100 1100 876.15 1100 600C1100 583.15 1099.15 566.45 1097.5 550zM650 996.9V650H996.9A400.20000000000005 400.20000000000005 0 0 1 650 996.9z" /><glyph glyph-name="share-line"
            unicode="&#xF0FE;"
            horiz-adv-x="1200" d="M656 348.85L446.05 463.35A200 200 0 1 0 446.05 736.5999999999999L656.05 851.0999999999999A200 200 0 1 0 703.9999999999999 763.3499999999999L493.9999999999999 648.85A200.4 200.4 0 0 0 493.9999999999999 551.15L703.9499999999999 436.65A200 200 0 1 0 656 348.9000000000001zM300 500A100 100 0 1 1 300 700A100 100 0 0 1 300 500zM850 800A100 100 0 1 1 850 1000A100 100 0 0 1 850 800zM850 200A100 100 0 1 1 850 400A100 100 0 0 1 850 200z" /><glyph glyph-name="shopping-cart-line"
            unicode="&#xF120;"
            horiz-adv-x="1200" d="M200 400V1000H100V1100H250A50 50 0 0 0 300 1050V450H921.9L1021.9 850H400V950H1086A50 50 0 0 0 1134.5 887.8499999999999L1009.4999999999998 387.8499999999999A50 50 0 0 0 961 349.9999999999998H250A50 50 0 0 0 200 399.9999999999998zM300 50A100 100 0 1 0 300 250A100 100 0 0 0 300 50zM900 50A100 100 0 1 0 900 250A100 100 0 0 0 900 50z" /><glyph glyph-name="chat-2-line"
            unicode="&#xEB4F;"
            horiz-adv-x="1200" d="M722.5 250L600 75L477.5000000000001 250H150A50 50 0 0 0 100 300V1000A50 50 0 0 0 150 1050H1050A50 50 0 0 0 1100 1000V300A50 50 0 0 0 1050 250H722.5zM670.4499999999999 350H1000V950H200V350H529.5500000000001L600 249.4L670.45 350z" /><glyph glyph-name="brush-line"
            unicode="&#xEB01;"
            horiz-adv-x="1200" d="M772.8 716.0999999999999L765.7 723.1999999999999A273.75 273.75 0 0 1 646.1999999999999 790.6499999999999C500.85 829.55 361.25 747.1999999999999 321.6 599.15C319.45 591.15 318.3 582.15 316.4 559.5999999999999C308.7 466.0999999999999 286.7 396.35 226.4 325.6C339.4 281.2 473.3 249.9000000000001 575.0999999999999 249.9000000000001A275.25 275.25 0 0 1 840.5999999999999 453.8000000000001A274.84999999999997 274.84999999999997 0 0 1 772.7999999999998 716.1zM664.5 889.2L911.45 1081.25A50 50 0 0 0 977.45 1077.15L1127.2 927.45A50 50 0 0 0 1131.3 861.4L939.3 614.5A375.25 375.25 0 0 0 575.15 149.8999999999999C400 149.9000000000001 175 225 50 300C249.0000000000001 450 202.35 540.4999999999999 225 625C277.9 822.5 467.0999999999999 937.85 664.4499999999999 889.2zM835.15 795.25C838.4000000000001 792.0999999999999 841.6499999999999 788.8499999999999 844.8000000000001 785.55L901.55 728.8499999999999L1025.3000000000002 887.9499999999999L938.0000000000002 975.25L778.9000000000002 851.5L835.1500000000001 795.25z" /><glyph glyph-name="bar-chart-horizontal-line"
            unicode="&#xEA9D;"
            horiz-adv-x="1200" d="M600 1050V950H150V1050H600zM800 250V150H150V250H800zM1100 650V550H150V650H1100z" /><glyph glyph-name="checkbox-multiple-blank-line"
            unicode="&#xEB87;"
            horiz-adv-x="1200" d="M350 850V1050A50 50 0 0 0 400 1100H1050A50 50 0 0 0 1100 1050V400A50 50 0 0 0 1050 350H850V150.3500000000001C850 122.55 827.55 100 799.65 100H150.35A50.3 50.3 0 0 0 100 150.3500000000001L100.15 799.6500000000001C100.15 827.45 122.6 850 150.5 850H350zM450 850H799.65C827.4499999999999 850 850 827.55 850 799.6500000000001V450H1000V1000H450V850zM200.15 750L200 200H750V750H200.15z" /><glyph glyph-name="character-recognition-line"
            unicode="&#xEB47;"
            horiz-adv-x="1200" d="M250 450V250H450V150H150V450H250zM1050 450V150H750V250H950V450H1050zM649.95 900L869.95 350H762.2L702.1500000000001 500H497.65L437.7000000000001 350H330L549.9499999999999 900H649.9499999999999zM599.95 755.75L537.6 600H662.2L599.9499999999999 755.75zM450 1050V950H250V750H150V1050H450zM1050 1050V750H950V950H750V1050H1050z" /><glyph glyph-name="newspaper-line"
            unicode="&#xEF8F;"
            horiz-adv-x="1200" d="M800 200V1000H200V250A50 50 0 0 1 250 200H800zM950 100H250A150 150 0 0 0 100 250V1050A50 50 0 0 0 150 1100H850A50 50 0 0 0 900 1050V700H1100V250A150 150 0 0 0 950 100zM900 600V250A50 50 0 0 1 1000 250V600H900zM300 900H600V600H300V900zM400 800V700H500V800H400zM300 550H700V450H300V550zM300 400H700V300H300V400z" /><glyph glyph-name="swap-box-line"
            unicode="&#xF1C9;"
            horiz-adv-x="1200" d="M200 950V250H1000V950H200zM150 1050H1050A50 50 0 0 0 1100 1000V200A50 50 0 0 0 1050 150H150A50 50 0 0 0 100 200V1000A50 50 0 0 0 150 1050zM750 850L925 700L750 550V650H550V750H750V850zM450 350L275 500L450 650V550H650V450H450V350z" /><glyph glyph-name="shape-line"
            unicode="&#xF0F2;"
            horiz-adv-x="1200" d="M391.5 200A150.04999999999998 150.04999999999998 0 1 0 200 391.4999999999999V808.5A150.04999999999998 150.04999999999998 0 1 0 391.5 1000H808.5000000000001A150.04999999999998 150.04999999999998 0 1 0 1000 808.5V391.4999999999999A150.04999999999998 150.04999999999998 0 1 0 808.5000000000001 200H391.5zM391.5 300H808.5000000000001A150.4 150.4 0 0 0 900 391.4999999999999V808.5A150.4 150.4 0 0 0 808.5000000000001 900H391.5A150.4 150.4 0 0 0 300 808.5V391.4999999999999A150.4 150.4 0 0 0 391.5 300zM250 900A50 50 0 1 1 250 1000A50 50 0 0 1 250 900zM950 900A50 50 0 1 1 950 1000A50 50 0 0 1 950 900zM950 200A50 50 0 1 1 950 300A50 50 0 0 1 950 200zM250 200A50 50 0 1 1 250 300A50 50 0 0 1 250 200z" /><glyph glyph-name="link"
            unicode="&#xEEB2;"
            horiz-adv-x="1200" d="M918.2 423.2000000000001L847.5 494L918.2 564.7A250 250 0 1 1 564.6500000000001 918.25L493.95 847.5L423.2000000000001 918.2L494.0000000000001 988.9A350 350 0 0 0 989 493.9L918.2500000000002 423.2000000000001zM776.8000000000001 281.8L706.0500000000001 211.0999999999999A350 350 0 0 0 211.0500000000001 706.0999999999999L281.8000000000001 776.8L352.5 706L281.8 635.3A250 250 0 1 1 635.35 281.7499999999999L706.0500000000001 352.45L776.8000000000001 281.7499999999999zM741.4000000000001 812.1499999999999L812.1500000000001 741.4L458.6000000000001 387.9L387.8500000000002 458.5999999999999L741.4000000000001 812.0999999999999z" /><glyph glyph-name="flashlight-line"
            unicode="&#xED3D;"
            horiz-adv-x="1200" d="M650 750H1050L550 0V450H200L650 1200V750zM550 650V839L376.6 550H650V330.3000000000001L863.1500000000001 650H550z" /><glyph glyph-name="more-line"
            unicode="&#xEF79;"
            horiz-adv-x="1200" d="M225 675C183.75 675 150 641.25 150 600S183.75 525 225 525S300 558.75 300 600S266.25 675 225 675zM975 675C933.75 675 900 641.25 900 600S933.75 525 975 525S1050 558.75 1050 600S1016.25 675 975 675zM600 675C558.75 675 525 641.25 525 600S558.75 525 600 525S675 558.75 675 600S641.25 675 600 675z" /><glyph glyph-name="fire-line"
            unicode="&#xED33;"
            horiz-adv-x="1200" d="M600 50A375 375 0 0 1 975 425C975 468.3 963.5 509.8499999999999 950 548.5C866.6499999999999 466.15 803.35 425 760 425C959.75 775 850 925 550 1125C575 875 410.2000000000001 761.3 343.1 698.15A375 375 0 0 1 600 50zM635.5 938.25C797.5500000000001 800.75 798.35 693.9 673.1500000000001 474.5500000000001C635.1000000000001 407.9000000000001 683.25 325 760 325C794.4000000000001 325 829.1999999999999 335 865.9500000000002 354.75A275 275 0 1 0 411.6000000000002 625.3499999999999C417.9000000000001 631.2499999999999 449.8500000000002 659.5999999999999 451.2500000000001 660.8499999999999C472.4500000000001 679.85 489.9000000000001 696.7 507.1500000000001 715.15C568.6500000000001 781.05 612.85 854.1499999999999 635.4500000000002 938.25z" /><glyph glyph-name="list-unordered"
            unicode="&#xEEBE;"
            horiz-adv-x="1200" d="M400 1000H1050V900H400V1000zM225 875A75 75 0 1 0 225 1025A75 75 0 0 0 225 875zM225 525A75 75 0 1 0 225 675A75 75 0 0 0 225 525zM225 180.0000000000001A75 75 0 1 0 225 330.0000000000001A75 75 0 0 0 225 180.0000000000001zM400 650H1050V550H400V650zM400 300H1050V200H400V300z" /><glyph glyph-name="add-circle-line"
            unicode="&#xEA11;"
            horiz-adv-x="1200" d="M550 650V850H650V650H850V550H650V350H550V550H350V650H550zM600 100C323.85 100 100 323.85 100 600S323.85 1100 600 1100S1100 876.15 1100 600S876.15 100 600 100zM600 200A400 400 0 1 1 600 1000A400 400 0 0 1 600 200z" /><glyph glyph-name="file-copy-line"
            unicode="&#xECD5;"
            horiz-adv-x="1200" d="M350 900V1050A50 50 0 0 0 400 1100H1000A50 50 0 0 0 1050 1050V350A50 50 0 0 0 1000 300H850V150C850 122.4000000000001 827.5 100 799.65 100H200.35A50.05 50.05 0 0 0 150 150L150.15 850C150.15 877.5999999999999 172.65 900 200.5 900H350zM250.15 800L250 200H750V800H250.15zM450 900H850V400H950V1000H450V900z" /><glyph glyph-name="eye-line"
            unicode="&#xECB5;"
            horiz-adv-x="1200" d="M600 1050C869.6 1050 1093.9 856 1140.95 600C1093.95 344 869.6000000000001 150 600.0000000000001 150C330.4000000000001 150 106.1000000000001 344 59.0500000000001 600C106.05 856 330.4 1050 600 1050zM600 250A450.25000000000006 450.25000000000006 0 0 1 1038.8500000000001 600A450.25000000000006 450.25000000000006 0 0 1 161.1500000000001 600A450.25000000000006 450.25000000000006 0 0 1 600 250zM600 375A225 225 0 1 0 600 825A225 225 0 0 0 600 375zM600 475A125 125 0 1 1 600 725A125 125 0 0 1 600 475z" /><glyph glyph-name="stack-line"
            unicode="&#xF181;"
            horiz-adv-x="1200" d="M1004.1499999999997 440L1064.2499999999998 403.9500000000001A25 25 0 0 0 1064.2499999999998 361.05L625.7499999999999 97.9500000000001A50 50 0 0 0 574.2499999999999 97.9500000000001L135.7499999999999 361.05A25 25 0 0 0 135.7499999999999 403.9500000000001L195.8499999999999 440L600 197.5L1004.1499999999997 440zM1004.1499999999997 675L1064.2499999999998 638.95A25 25 0 0 0 1064.2499999999998 596.05L600 317.5000000000001L135.75 596.0500000000001A25 25 0 0 0 135.75 638.95L195.85 675.0000000000001L600 432.5L1004.1499999999997 675zM625.6999999999999 1134.55L1064.25 871.45A25 25 0 0 0 1064.25 828.5500000000001L600 550L135.75 828.55A25 25 0 0 0 135.75 871.45L574.25 1134.55A50 50 0 0 0 625.7499999999999 1134.55zM600 1033.4L294.35 850L600 666.6L905.65 850L600 1033.4z" /><glyph glyph-name="settings-3-line"
            unicode="&#xF0E6;"
            horiz-adv-x="1200" d="M167 350A500.9 500.9 0 0 0 118.1 466.3000000000001A150 150 0 0 1 118.2 733.6500000000001A499.5000000000001 499.5000000000001 0 0 0 243.25 950.5A150 150 0 0 1 474.8 1084.2A499.5000000000001 499.5000000000001 0 0 0 725.15 1084.1A150 150 0 0 1 956.7499999999998 950.5C985.7 921 1011.3999999999997 887.45 1032.9999999999998 850C1054.6499999999999 812.55 1070.85 773.5 1081.8999999999999 733.7A150 150 0 0 1 1081.8 466.3499999999999A499.5000000000001 499.5000000000001 0 0 0 956.7499999999998 249.4999999999999A150 150 0 0 1 725.1999999999999 115.8A499.5000000000001 499.5000000000001 0 0 0 474.8499999999999 115.8999999999999A150 150 0 0 1 243.2499999999999 249.4999999999999A500.9 500.9 0 0 0 167 350zM450 340.2A249.65000000000003 249.65000000000003 0 0 0 562.5 201.6999999999999C587.45 199.3499999999999 612.5 199.3000000000001 637.45 201.6499999999999A249.65000000000003 249.65000000000003 0 0 0 750 340.1500000000001A249.65000000000003 249.65000000000003 0 0 0 926.2499999999998 368.4000000000001C940.7499999999998 388.8000000000002 953.2499999999998 410.5500000000001 963.65 433.3000000000001A249.65000000000003 249.65000000000003 0 0 0 900 600C900 663 923.5 721.8499999999999 963.65 766.7A406.3 406.3 0 0 1 926.15 831.5999999999999A249.65000000000003 249.65000000000003 0 0 0 750 859.8A249.65000000000003 249.65000000000003 0 0 0 637.5 998.3C612.55 1000.65 587.5 1000.7 562.55 998.35A249.65000000000003 249.65000000000003 0 0 0 450 859.85A249.65000000000003 249.65000000000003 0 0 0 273.75 831.5999999999999A399.5 399.5 0 0 1 236.35 766.7A249.65000000000003 249.65000000000003 0 0 0 300 600C300 537 276.5 478.15 236.35 433.3000000000001A406.3 406.3 0 0 1 273.85 368.4000000000001A249.65000000000003 249.65000000000003 0 0 0 450 340.2zM600 450A150 150 0 1 0 600 750A150 150 0 0 0 600 450zM600 550A50 50 0 1 1 600 650A50 50 0 0 1 600 550z" /><glyph glyph-name="eye-2-line"
            unicode="&#xECB1;"
            horiz-adv-x="1200" d="M600 1100C876.15 1100 1100 876.15 1100 600S876.15 100 600 100S100 323.85 100 600S323.85 1100 600 1100zM600 1000A400 400 0 1 1 600 200A400 400 0 0 1 600 1000zM600 850A250 250 0 1 0 361 673.65A124.95 124.95 0 0 1 600 725A125 125 0 0 1 526.3499999999999 839C549.65 846.15 574.3499999999999 850 600 850z" /></font>
</defs>
</svg>
